<?xml version="1.0" standalone="no"?>
<!DOCTYPE svg PUBLIC "-//W3C//DTD SVG 1.1//EN" "http://www.w3.org/Graphics/SVG/1.1/DTD/svg11.dtd">
<svg xmlns="http://www.w3.org/2000/svg">
<metadata>Copyright (C) 2019 by original authors @ fontello.com</metadata>
<defs>
<font id="ltx-fitmeal" horiz-adv-x="1000" >
<font-face font-family="ltx-fitmeal" font-weight="400" font-stretch="normal" units-per-em="1000" ascent="850" descent="-150" />
<missing-glyph horiz-adv-x="1000" />
<glyph glyph-name="emo_02" unicode="&#xe800;" d="M896 501c-8 10-20 17-37 20-12 2-25 2-40 1-16-1-32-4-51-8-16-3-32-8-47-13-14-4-26-9-38-14-25-12-49-24-72-37-24-15-47-30-68-46-24-18-44-36-62-55-20-21-36-40-49-60-14-22-24-44-32-66 0-2 0-4 2-6 1-2 4-4 7-5l0 0c2 0 5 0 7 1 3 0 5 0 8 1 14 7 27 14 40 22l13 7c12 7 24 13 36 18l0 0c22 9 44 17 71 26l30 10c19 7 37 13 56 20 40 14 83 30 123 50 21 10 36 18 50 28 12 8 26 18 37 30 4 6 9 11 12 18 4 6 6 12 8 19 4 16 2 29-4 39z m-416-16c5-1 11 2 13 7 9 10 20 19 28 26 13 11 26 22 39 33 26 23 57 49 85 76 15 15 28 28 39 41 13 14 23 27 30 39 10 15 16 27 19 39 2 6 3 12 4 19 0 6 0 11-1 15-2 10-6 17-10 24-4 7-9 12-15 15-4 3-10 5-15 6-2 1-4 1-6 1-7 0-15-1-22-3-14-4-28-12-44-25-14-10-27-22-39-35-30-32-55-70-73-113-20-47-33-97-41-154 0-6 3-10 9-11z m-103 203c-2 4-3 7-5 10-4 6-8 10-13 14-4 3-8 5-13 7-4 1-8 1-12 0-1 0-2 0-3 0-5-2-10-4-14-6-8-6-14-13-21-24-6-9-12-20-16-31-11-25-16-54-17-85 0-34 4-69 14-107 1-3 5-5 9-5 3 0 6 4 6 7 4 8 8 16 11 22 6 10 11 19 16 28 11 20 24 42 35 64 6 13 11 24 14 34 5 12 8 22 9 31 3 11 3 20 2 28 0 5-1 9-2 13z m-261-732c-4-4-9-8-13-13-9-12-11-28-6-40 2-6 7-12 12-16 5-4 11-7 19-9l1 0c8-2 17-2 27 0 2 0 4 1 7 2 1 0 3 0 4 0 5 0 10 1 15 4 5 1 9 4 14 8 7 6 14 14 19 24 1 3 3 7 4 11l1 3 0 0c1 1 1 2 1 4 0 3 1 6 1 9 0 10-2 19-6 25-3 4-6 7-10 10-3 2-7 3-11 4-1 1-3 1-4 1-14 2-28-2-38-6-7-3-14-6-23-12-5-3-10-6-14-9z m198 47c1-6 5-12 10-16 3-3 7-4 10-6 2 0 3 0 4-1 3 0 6-1 8-1 5-1 10 0 15 1 6 0 11 1 16 2 6 2 11 4 16 7 3 2 6 6 10 10 5 7 7 15 6 24 0 3-2 7-4 11-2 3-5 6-10 10-2 1-5 3-9 3-2 1-3 1-5 1-5 1-10 1-16 0-6-1-12-3-20-6-11-5-20-11-25-19-5-6-7-14-6-20z m-141 87c-1-3-2-7-1-11 1-7 3-13 7-18 4-4 9-7 15-8 8-2 15 0 20 1 14 5 24 15 28 27 0 2 0 3 0 5 0 5-2 10-7 14-4 4-9 6-15 8-2 0-4 0-5 1-5 0-9 0-12 0-4 0-9-1-14-3-7-2-13-8-16-16z" horiz-adv-x="1000" />

<glyph glyph-name="mobile-payment" unicode="&#xe801;" d="M483-50l34 0 0-33-34 0z m0 0m317 490l0 327c0 46-37 83-83 83l-434 0c-46 0-83-37-83-83l0-84 33 0 0 34 534 0 0-460-30 30c-10 10-23 17-37 20l0 260c0 46-37 83-83 83l-534 0c-46 0-83-37-83-83l0-300c0-46 37-84 83-84l534 0c3 1 6 1 9 1 2-1 3-3 4-4l133-133-4-9c-4-7-7-14-10-21l-516 0 0 133-33 0 0-217c0-46 37-83 83-83l434 0c11 0 23 3 33 7l0-7 33 0 0 17c0 2 0 4-1 6-19 48-17 103 6 150l10 20c4 6 2 14-3 19l-141 142c-17 16-16 43 0 59 16 16 43 16 59 0l175-175 24 24-112 112 0 166 130-142c24-27 37-62 37-99l0-299 33 0 0 299c0 45-16 88-46 121z m-517-557c-27 0-50 23-50 50l0 50 507 0c-6-31-5-62 2-93-8-4-16-7-25-7z m349 405c1 4 1 8 1 12 0 20-11 38-29 46-18 8-39 4-54-9-20 18-51 17-69-2-19-20-19-50 0-70 18-19 49-20 69-2 17-16 44-17 63-3-5-14-6-29-3-43l-527 0c-27 0-50 22-50 50l0 300c0 27 23 50 50 50l534 0c27 0 50-23 50-50l0-260c-13-3-25-9-35-19z m-32 12c0-9-7-17-17-17-9 0-16 8-16 17 0 9 7 17 16 17 10 0 17-8 17-17z m-67 0c0-9-7-17-16-17-9 0-17 8-17 17 0 9 8 17 17 17 9 0 16-8 16-17z m-300 450l0 17c0 27 23 50 50 50l434 0c27 0 50-23 50-50l0-17z m0 0m-50-300c10 0 17 8 17 17l0 100c0 9-7 16-17 16l-100 0c-9 0-16-7-16-16l0-100c0-9 7-17 16-17z m-83 100l67 0 0-67-67 0z m0 0m-17-133l67 0 0-34-67 0z m0 0m0-84l67 0 0-33-67 0z m0 0m284 0l66 0 0-33-66 0z m0 0m-184 84l67 0 0-34-67 0z m0 0m100 0l67 0 0-34-67 0z m0 0m100 0l67 0 0-34-67 0z m0 0m100 0l67 0 0-34-67 0z m0 0m100 150l34 0 0-34-34 0z m0 0m-66 0l33 0 0-34-33 0z m0 0m-67 0l33 0 0-34-33 0z m0 0m-67 0l34 0 0-34-34 0z m0 0" horiz-adv-x="1000" />

<glyph glyph-name="calories" unicode="&#xe802;" d="M583 67c-36 0-66-30-66-67s30-67 66-67 67 30 67 67-30 67-67 67z m0-100c-18 0-33 15-33 33s15 33 33 33 34-15 34-33-15-33-34-33z m0 0m167 266c-37 0-67-29-67-66v-167c0-37 30-67 67-67s67 30 67 67v167c0 37-30 66-67 66z m33-233c0-18-15-33-33-33s-33 15-33 33v167c0 18 15 33 33 33s33-15 33-33z m0 0m-200 233c-36 0-66-29-66-66s30-67 66-67 67 30 67 67-30 66-67 66z m0-100c-18 0-33 15-33 34s15 33 33 33 34-15 34-33-15-34-34-34z m0 0m0 267c-36 0-66-30-66-67s30-66 66-66 67 30 67 66-30 67-67 67z m0-100c-18 0-33 15-33 33s15 34 33 34 34-15 34-34-15-33-34-33z m0 0m-166 100c-37 0-67-30-67-67s30-66 67-66 66 30 66 66-29 67-66 67z m0-100c-19 0-34 15-34 33s15 34 34 34 33-15 33-34-15-33-33-33z m0 0m333 100c-37 0-67-30-67-67s30-66 67-66 67 30 67 66-30 67-67 67z m0-100c-18 0-33 15-33 33s15 34 33 34 33-15 33-34-15-33-33-33z m0 0m-167 267c-36 0-66-30-66-67s30-67 66-67 67 30 67 67-30 67-67 67z m0-100c-18 0-33 15-33 33s15 33 33 33 34-15 34-33-15-33-34-33z m0 0m167 100c-37 0-67-30-67-67s30-67 67-67 67 30 67 67-30 67-67 67z m0-100c-18 0-33 15-33 33s15 33 33 33 33-15 33-33-15-33-33-33z m0 0m-500-34h167c37 0 66 30 66 67s-29 67-66 67h-167c-37 0-67-30-67-67s30-67 67-67z m0 100h167c18 0 33-15 33-33s-15-33-33-33h-167c-18 0-33 15-33 33s15 33 33 33z m0 0m-50 67h600c9 0 17 8 17 17v133c0 9-8 17-17 17h-600c-9 0-17-8-17-17v-133c0-9 8-17 17-17z m17 133h566v-100h-566z m0 0m683-816v866c0 37-30 67-67 67h-666c-37 0-67-30-67-67v-614c-7-8-13-17-18-27-10-19-15-41-15-63 0-32 7-64 20-94l37-83c19-41 66-62 109-48l34 12 33-12c6-1 11-2 17-3v-1h516c37 0 67 30 67 67z m-733 900h666c19 0 34-15 34-34v-866c0-19-15-34-34-34h-435c4 6 8 12 11 19l38 83c13 30 20 62 20 94 0 22-5 44-15 63-15 30-41 52-73 62-32 9-66 5-95-12 1 12 3 23 6 35v0c8 27 23 51 42 70l-23 24c-11-12-21-24-29-37-19 38-59 63-102 63-9 0-17-7-17-17 0-54 39-101 93-111-2-9-3-19-3-28-36 22-81 23-118 4v588c0 19 15 34 34 34z m89-565c-29 7-52 30-59 60 29-8 52-30 59-60z m16-353c-3 1-7 1-11 0l-38-13c-27-8-57 4-69 30l-37 83c-11 25-17 52-17 80 0 17 4 33 11 48 12 24 34 40 59 46 26 6 52-1 73-17l13-11c6-5 15-5 21 0l13 11c21 16 48 23 73 17 26-6 47-22 59-46 7-15 11-31 11-48 0-28-5-55-17-80l-37-83c-12-26-41-39-68-30z m0 0m445 801h33v-33h-33z m0 0m-67 0h33v-33h-33z m0 0m-67 0h34v-33h-34z m0 0m-498-793l-28 64c-16 34-24 71-24 108 0 27 7 54 19 78 3 7 7 14 12 20l-28 19c-5-7-10-16-14-24-14-29-22-61-22-93 0-42 9-83 26-121l29-65z m0 0m848 793h34v-367h-34z m0 0m0-400h34v-33h-34z m0 0" horiz-adv-x="1000" />

<glyph glyph-name="mail-1" unicode="&#xe803;" d="M961 850c0 0 0 0 0 0h-922c0 0 0 0 0 0-22 0-39-18-39-39v-625c0-22 18-39 39-39h0 922 0c22 0 39 18 39 39v625c0 21-17 39-39 39z m-95-78l-366-362-366 362z m-788-55l221-219-221-218z m56-492l221 219 118-117c15-15 39-15 55 0l117 117 221-219z m788 55l-221 218 221 219z m0 0" horiz-adv-x="1000" />

<glyph glyph-name="menu" unicode="&#xe804;" d="M961 389h-922c-21 0-39-17-39-39 0-22 18-39 39-39h922c22 0 39 17 39 39s-17 39-39 39z m0 313h-922c-21 0-39-18-39-39s18-40 39-40h922c22 0 39 18 39 40s-17 39-39 39z m0-625h-922c-21 0-39-18-39-39 0-22 18-40 39-40h922c22 0 39 18 39 40 0 21-17 39-39 39z" horiz-adv-x="1000" />

<glyph glyph-name="right-arrow" unicode="&#xe805;" d="M989 378c0 0 0 0 0 0l-205 203c-15 15-40 15-55 0-15-16-15-40 0-56l137-136h-827c-21 0-39-17-39-39 0-22 18-39 39-39h827l-137-136c-15-16-15-40 0-56 15-15 40-15 55 0l205 203c0 0 0 0 0 0 15 16 15 40 0 56z" horiz-adv-x="1000" />

<glyph glyph-name="search" unicode="&#xe806;" d="M989-83l-236 235c64 76 99 172 99 272 0 236-191 426-426 426-235 0-426-190-426-426 0-235 190-426 426-426 100 0 196 35 272 99l235-236c16-15 40-15 56 0 15 16 15 40 0 56z m-563 160c-192 0-348 156-348 347s156 348 348 348 347-156 347-348-155-347-347-347z m0 0" horiz-adv-x="1000" />

<glyph glyph-name="share" unicode="&#xe807;" d="M805 241c-62 0-118-29-153-74l-268 133c4 16 7 33 7 50s-3 34-7 50l268 134c35-46 91-75 153-75 107 0 195 88 195 196s-88 195-195 195-196-88-196-195c0-18 3-35 7-52l-267-133c-36 46-91 75-154 75-107 0-195-87-195-195s88-195 195-195c63 0 118 29 154 75l267-133c-4-17-7-34-7-52 0-107 88-195 196-195s195 88 195 195-88 196-195 196z m0 531c64 0 117-53 117-117s-53-117-117-117-117 52-117 117 52 117 117 117z m-610-539c-64 0-117 52-117 117s53 117 117 117 118-52 118-117-53-117-118-117z m610-305c-65 0-117 53-117 117s52 118 117 118 117-53 117-118-53-117-117-117z m0 0" horiz-adv-x="1000" />

<glyph glyph-name="natural" unicode="&#xe808;" d="M953 397h-70c-8 36-25 70-50 98-11 13-25 23-39 31 29 20 47 53 47 90v15h-78c-40 0-74-21-94-53v38c0 34 29 62 63 62v31c-52 0-94-42-94-93v-87c-46 17-98 4-131-33-4-4-8-9-12-14l2 7c2 10 3 21 3 33 0 44-18 83-47 112l54 80c1 2 2 4 3 6 12 24 3 53-21 65l-4 2c-12 5-25 6-37 2s-22-12-28-24c-1-2-2-3-2-5l-32-88c-2 1-4 1-6 2l10 111c1 1 1 3 1 4 0 25-21 45-46 45h-3c-25 0-45-20-45-45 0-1 0-3 0-4l11-111c-2-1-4-1-6-2l-32 88c-1 2-1 4-2 5-6 12-16 21-28 25-13 4-26 3-37-3l-4-2c-24-12-34-41-22-65 1-2 2-4 3-5l55-81c-29-28-47-69-47-113 0-11 1-22 3-32l19-92h-22c-18 0-32-14-32-31v-1c-5 0-10 1-15 1h-78v-16c0-37 18-70 47-90-14-7-28-17-39-30-36-40-55-92-55-146 0-60 24-116 67-157 41-40 94-61 151-61 3 0 6 0 9 0 56 2 106 25 144 62h457c43 0 78 35 78 78v297h31c17 0 31 14 31 31v32c0 17-14 31-31 31z m-190 203h46c-8-35-39-62-77-62h-45c7 35 38 62 76 62z m-233-125c25 29 68 38 102 23 2-1 4-1 6-2v-33c-15 5-30 18-36 23l-22-22c4-4 37-36 74-36s70 32 73 36l-22 22c-5-5-20-18-36-23v43h63c5 0 10 1 16 1 21-1 45-13 62-33 20-22 34-49 41-77h-363c8 29 22 56 42 78z m-83 274c0 1 1 1 1 2 2 4 6 7 10 9 4 1 9 1 13-1l4-2c8-4 12-15 8-23-1-1-1-1-2-2l-53-79c-4 3-9 6-13 8l32 88z m-119 40c0 8 6 14 14 14h3c8 0 14-6 14-15l-11-110c-1 0-3 0-4 0s-3 0-5 0l-11 111z m-122-57c0 1-1 1-1 2-4 8-1 19 8 23l3 2c5 2 9 2 14 1 4-1 7-4 10-9 0-1 0-1 0-2l33-88c-5-3-9-5-13-8l-54 79z m138-85c69 0 125-56 125-126 0-9-1-17-3-26l-20-98h-174c11 9 25 16 41 16v31c-30 0-56-14-73-35l-18 86c-2 9-3 17-3 27 0 69 56 125 125 125z m-156-281h32c-1-5-1-11-1-16v-17c-9 9-20 16-31 22v11z m-47-32c37 0 69-27 76-62h-45c-38 0-69 27-77 62h46z m101-437c-52-2-101 17-138 52-37 36-57 84-57 135 0 46 17 91 47 125 17 19 40 31 62 33 5-1 10-1 16-1h47v-44c-16 6-30 18-36 24l-22-23c4-3 37-35 73-35s70 32 74 35l-22 23c-6-6-20-18-36-24v30c7 1 15 3 22 6 34 15 76 5 102-23 33-37 50-84 48-134-5-97-83-175-180-179z m211 187c0 33-7 65-21 94h459v-94h-438z m391-125h-430c19 28 32 60 37 94h440v-47c0-26-21-47-47-47z m109 375h-62v-125h-477c-5 8-11 15-17 22-35 38-90 51-138 30-3-1-6-2-9-3v45h609v31h-609v16c0 6 1 11 2 16h701v-32z m-844-250h-31c0-86 70-156 156-156v31c-69 0-125 56-125 125z" horiz-adv-x="1000" />

<glyph glyph-name="favorites" unicode="&#xe809;" d="M922 456c18 18 25 44 17 68-8 24-28 41-53 45l-219 31c-4 1-8 4-10 8l-98 198c-11 23-34 37-59 37-25 0-48-14-59-37l-98-198c-2-4-6-7-10-8l-219-31c-25-4-45-21-53-45-8-24-1-50 17-68l158-154c3-3 5-8 4-12l-37-218c-5-25 5-49 26-64 20-15 47-17 69-5l196 103c4 2 8 2 12 0l196-103c10-6 20-8 31-8 13 0 27 4 38 13 21 15 31 39 27 64l-38 218c-1 4 1 9 4 12l158 154z m-214-175l38-218c1-7-4-11-6-13-2-1-7-4-14-1l-195 103c-10 5-20 8-31 8-10 0-21-3-31-8l-195-103c-7-3-12 0-14 1-2 2-7 6-5 13l37 218c4 22-4 43-19 59l-158 154c-6 5-4 11-4 13 1 3 4 8 11 9l219 32c21 3 40 17 49 36l98 198c4 7 10 8 12 8 3 0 9-1 12-8v0l98-198c9-19 28-33 49-36l219-32c8-1 10-6 11-9 1-2 2-8-3-13l-159-154c-15-16-22-37-19-59z m100 525c-12 8-28 6-37-6l-28-39c-8-11-6-28 6-36 5-4 10-5 16-5 8 0 16 3 21 10l28 39c9 12 6 28-6 37z m-551-44l-28 38c-9 12-25 15-37 6-12-9-15-25-6-37l28-38c5-7 13-11 21-11 6 0 11 1 16 5 12 8 14 25 6 37z m-160-511c-5 14-20 21-33 17l-46-15c-14-5-21-19-17-33 4-11 14-18 25-18 3 0 6 0 9 1l45 15c14 4 21 19 17 33z m403-293c-15 0-26-12-26-27v-47c0-15 11-27 26-27 15 0 26 12 26 27v47c0 15-11 27-26 27z m482 295l-45 15c-14 4-29-3-34-17-4-14 3-29 17-34l46-14c2-1 5-2 8-2 11 0 21 8 25 19 4 14-3 28-17 33z" horiz-adv-x="1000" />

<glyph glyph-name="phone-call" unicode="&#xe80a;" d="M804 270c-15 15-40 15-55 0l-91-91-329 329 91 91c15 15 15 40 0 55l-157 157c-15 15-40 15-55 0l-197-197c-11-11-14-28-8-43 67-161 164-306 288-430 124-124 269-221 430-288 15-6 32-3 43 8l197 197c15 15 15 40 0 55z m-77-335c-142 63-271 151-381 261-110 110-198 239-261 381l151 151 101-102-91-90c-15-16-15-40 0-55l385-385c15-15 39-15 55 0l90 91 102-101z m262 448c-5-21-26-34-47-29-21 5-34 26-29 47 25 100-3 208-79 283-75 76-183 104-283 79-21-5-42 8-47 29-5 21 8 42 29 47 128 32 263-6 357-99 93-94 131-229 99-357z m-231 46c10 50-6 101-42 137-36 36-87 52-137 42-21-4-42 10-46 31-4 22 10 42 31 46 76 14 153-9 207-64 55-54 78-131 64-207-4-18-20-31-38-31-25 0-43 22-39 46z m0 0" horiz-adv-x="1000" />

<glyph glyph-name="check" unicode="&#xe80b;" d="M988 731c-15 16-40 15-55 0l-663-679-203 208c-15 15-40 15-55 0-16-15-16-40-1-55l231-236c7-7 17-12 28-12 10 0 20 4 28 12l691 707c15 16 15 40-1 55z" horiz-adv-x="1000" />

<glyph glyph-name="clock" unicode="&#xe80c;" d="M500 850c-276 0-500-224-500-500 0-276 224-500 500-500 276 0 500 224 500 500 0 276-224 500-500 500z m325-769l-24 23c-15 15-40 15-55 0-15-15-15-40 0-55l23-24c-65-54-145-87-230-95v33c0 22-17 39-39 39s-39-17-39-39v-33c-85 8-165 41-230 95l23 24c15 15 15 40 0 55-15 15-40 15-55 0l-24-23c-54 65-87 145-95 230h33c22 0 39 17 39 39s-17 39-39 39h-33c8 85 41 165 95 230l24-23c15-15 40-15 55 0 15 15 15 40 0 55l-23 24c65 54 145 87 230 95v-33c0-22 17-39 39-39s39 17 39 39v33c85-8 165-41 230-95l-23-24c-15-15-15-40 0-55 15-15 40-15 55 0l24 23c54-65 87-145 95-230h-33c-22 0-39-17-39-39s17-39 39-39h33c-8-85-41-165-95-230z m-208 386c16-15 16-40 0-55l-89-90c-25-24-67-6-67 28v254c0 22 17 39 39 39s39-17 39-39v-160l23 23c15 16 40 16 55 0z m0 0" horiz-adv-x="1000" />

<glyph glyph-name="close" unicode="&#xe80d;" d="M555 350l434 433c15 16 15 40 0 56-16 15-40 15-56 0l-433-434-433 434c-16 15-40 15-56 0-15-16-15-40 0-56l434-433-434-433c-15-16-15-40 0-56 16-15 40-15 56 0l433 434 433-434c16-15 40-15 56 0 15 16 15 40 0 56l-434 433z" horiz-adv-x="1000" />

<glyph glyph-name="comments" unicode="&#xe80e;" d="M500 850c-264 0-500-180-500-426 0-89 32-174 92-246l-52-201c-7-30 21-57 50-47l265 87c47-12 96-19 145-19 265 0 500 181 500 426 0 248-238 426-500 426z m0-773c-46 0-92 6-135 18-8 2-16 2-23 0l-208-68 39 151c3 13 0 27-9 36-56 61-86 134-86 210 0 192 189 348 422 348s422-156 422-348-189-347-422-347z m49 347c0-27-22-49-49-49s-49 22-49 49c0 27 22 49 49 49s49-22 49-49z m195 0c0-27-22-49-49-49s-48 22-48 49c0 27 21 49 48 49s49-22 49-49z m-390 0c0-27-22-49-49-49s-49 22-49 49c0 27 22 49 49 49s49-22 49-49z m0 0" horiz-adv-x="1000" />

<glyph glyph-name="date_02" unicode="&#xe80f;" d="M941 716h-184v38c0 20-17 37-37 37-21 0-38-17-38-37v-38h-364v38c0 20-17 37-37 37-21 0-38-17-38-37v-38h-184c-21 0-37-17-37-37v-733c0-20 16-37 37-37h882c21 0 37 17 37 37v733c1 20-16 37-37 37z m-37-732h-808v657h147v-37c0-21 17-38 37-38 21 0 38 17 38 38v37h364v-37c0-21 17-38 37-38 21 0 38 17 38 38v37h146v-657z m-215 410h-134v55h-110v-55h-134v55h-110v-111h55v-99h-55v-111h111v55h133v-55h110v55h134v-55h110v111h-54v99h54v111h-110v-55z m-377-210v55h-55v99h55v54h133v-54h54v-99h-54v-55h-133z m431 55h-54v-55h-134v55h-54v99h54v54h134v-54h54v-99z" horiz-adv-x="1000" />

<glyph glyph-name="emo_01" unicode="&#xe810;" d="M739 58c0 4-1 9-2 14-1 5-3 10-6 16 0 0-1 1-1 1-2 4-5 7-8 11-6 6-15 11-25 12-5 1-10 1-14 0-1 0-3-1-4-1-3-1-6-3-9-5-4-2-7-5-11-9-3-4-5-8-8-14-4-8-6-19-6-29 0-8 2-16 5-23 3-6 7-11 12-14 5-4 10-6 17-7 8-2 16-1 25 2 4 1 7 3 11 5 5 3 10 7 14 12 4 5 7 11 9 18 0 3 0 7 1 11z m118-78c-1 6-4 13-8 18-4 6-9 10-15 13-2 1-5 2-8 2-3 1-6 0-10 0l-1-1c-2-1-5-2-7-4-3-2-6-5-9-9-1-3-3-6-4-10 0-4-1-8 0-12 0-4 1-8 2-12 1-3 3-7 5-11 3-5 7-9 11-12 4-3 9-5 15-6 5-1 10 0 15 1l0 0c3 1 5 3 6 4 2 2 4 3 5 6 1 1 2 3 2 5 2 3 2 5 3 8 1 6 0 12-2 20z m-93-63c-1 1-2 1-4 2-1 1-3 2-5 3-3 1-5 1-8 1-1 0-2 0-3-1-2 0-3-1-5-2-2-2-4-5-5-8-1-2-2-3-2-5-1-3-2-6-2-8 0-6 1-10 3-14 1-2 3-4 4-6 2-1 3-3 6-4 1-1 3-1 5-2 2 0 4 0 6 1 1 0 2 0 3 0 1 1 2 1 3 2 2 1 4 3 6 5 1 2 3 4 4 7 0 1 1 3 1 5 1 4 1 8 0 13-1 4-4 8-7 11z m-249 772c10-23 23-48 41-76 15-23 33-48 54-75 17-21 35-42 55-64 17-20 35-39 49-54 1-1 4-2 5-2 2 1 4 1 5 2 2 0 3 1 4 3 1 1 3 4 2 6-4 23-9 48-15 73-2 9-5 17-7 25l-1 4c-5 17-10 33-15 50-19 60-35 105-54 146-8 17-19 41-34 62-7 8-13 16-19 22-6 5-13 10-19 12-4 2-7 3-10 3-2 0-3 0-4 0-3 0-6 0-9-1-8-2-15-7-20-12-7-6-12-14-17-24-3-9-5-18-6-31-1-12 1-23 4-33 2-11 6-23 11-36z m59-228c-25 26-46 45-66 62-12 9-24 18-36 26-12 7-24 12-35 14-4 2-9 2-13 2-6 0-12-1-17-3-4-1-8-4-12-7-4-4-7-7-9-10-5-7-7-15-6-23 0-6 3-14 8-21 5-9 13-16 18-21 8-6 16-12 27-19 19-12 40-24 68-37 21-9 44-19 69-28 13-5 25-9 38-13 8-3 15-5 22-6 0 0 1 0 1 0 3 0 5 0 6 2 1 0 2 1 3 2 1 1 2 3 2 6 0 2-2 4-3 5-20 21-41 44-65 69z m-21-175c-24 8-48 15-72 23l-27 9c-18 5-36 11-54 16-26 8-50 15-73 20-29 8-54 13-77 16-19 3-34 4-47 4-6 0-12 0-18-1-20-1-33-7-40-18-4-5-6-12-6-21 1-3 1-7 2-11 2-5 4-9 6-14 8-15 23-28 46-39 10-4 21-8 34-11 12-3 26-6 41-8 26-4 55-6 89-6 29 0 59 2 90 5 28 2 52 6 75 10 8 1 20 4 31 7 2 1 4 2 5 3 1 2 2 4 1 7 0 1-1 3-2 4-1 3-2 4-4 5z" horiz-adv-x="1000" />

<glyph glyph-name="no_frying" unicode="&#xe812;" d="M947 429h-52c1 10 4 20 9 29l29 48c6 9 6 21 0 30-5 10-15 16-26 16h-399c1 3 1 6 1 9 0 33-28 61-62 61-33 0-61-28-61-61 0-3 0-6 1-9h-294c-11 0-21-6-26-16-6-9-5-21 0-30l29-48c5-9 8-19 9-29h-52c-29 0-53-24-53-53 0-29 24-52 53-52h52v-120c0-60 49-108 109-108h26c6-10 14-20 23-32 4-6 9-12 15-19l10-14 14 10c28 21 45 37 51 55h110c1-1 1-2 2-4 7-9 15-19 23-30l11-14 14 11c18 13 33 25 44 37h100c5-10 13-20 23-32 4-6 9-12 14-19l11-14 14 10c28 21 45 37 51 55h17c59 0 108 48 108 108v120h52c29 0 53 23 53 52s-24 53-53 53z m-526 132c0 14 12 26 26 26 15 0 27-12 27-26 0-4-1-7-2-9h-49c-1 2-2 5-2 9z m-368-202c-10 0-18 8-18 17 0 10 8 18 18 18h52v-35z m242-279c-2 2-3 4-4 6-12 15-21 27-25 35-1 1-1 2-1 2-1 1-1 2-1 3-1 2-1 4 0 6 0 1 1 2 1 3 1 1 1 1 2 2 1 2 2 3 4 5 0 1 0 1 1 1 2 3 4 5 7 8 3 2 6 5 10 8 1-2 2-4 4-6 7-9 14-18 19-25 0 0 0 0 0 0 2-3 4-6 5-9 0 0 0-1 1-1 1-2 2-5 2-7 0-1 0-2 0-2-1-8-12-18-25-29z m217 150c1-1 2-2 3-4 19-25 32-42 37-55 0 0 1-1 1-1 1-2 1-3 2-5 0 0 0 0 0-1 1-4 1-8 0-13 0 0 0-1-1-2 0 0 0-1 0-1-2-6-6-12-12-18-1-1-3-3-4-4l-4-4c-8-8-17-16-28-24-5 5-9 11-13 16-1 2-3 3-4 5l-4 5c-2 3-5 6-7 9 0 1-1 2-2 2-2 3-4 6-5 8-1 1-2 2-2 3-2 2-4 5-5 7-1 1-1 2-2 2-1 3-3 5-4 7 0 1-1 1-1 2-1 2-3 4-4 6 0 1 0 1 0 1-3 7-5 14-4 19 2 15 21 34 50 56 4-5 9-11 13-16z m200-150c-2 2-3 4-5 6-11 15-21 27-25 35 0 1 0 2-1 2 0 2-1 3-1 4 0 1 0 3 1 5 0 1 0 2 1 3 0 1 1 1 1 2 2 2 3 3 4 5 1 1 1 1 1 1 3 3 5 5 8 8 3 2 6 5 9 8 1-2 2-3 3-4 0 0 1-1 2-2 0-1 1-1 1-2 3-3 5-6 8-10 0 0 1-1 1-2 3-3 6-7 8-10 0-1 0-1 0-1 3-3 4-6 6-9 0 0 0-1 0-1 2-3 2-5 3-7 0-1 0-2 0-3-1-7-12-17-25-28z m148 124c0-40-33-73-73-73h-20c0 0 0 0 0 1-2 2-3 5-5 8 0 0 0 1-1 2-1 2-3 5-5 7-1 1-1 2-2 3-2 3-4 6-6 9-1 0-1 1-2 2-2 3-4 5-6 8-1 1-2 2-3 4-4 6-9 12-15 19l-10 14-14-11c-17-13-32-24-41-37-1-1-2-2-3-3 0-1-1-2-2-3-1-2-2-3-2-5-1-1-1-2-2-4 0-1-1-2-1-3-1-2-1-3-1-5-1-1-1-1-1-2 0-1 0-1 0-2 0-1 0-1 0-2h-60c1 2 2 5 3 7 0 1 0 1 0 1 1 3 2 6 2 9 0 1 1 1 1 1 0 1 0 1 0 1 0 3 0 7 0 10 0 1 0 2 0 3-1 2-1 4-1 6-4 17-14 34-30 56-3 3-5 6-7 9-2 2-4 4-5 7-2 2-4 5-6 7-1 2-2 3-3 4-7 9-14 19-23 30l-10 14-14-11c-6-4-12-9-17-13-37-29-58-51-61-77 0-1 0-2 0-3 0-2-1-4 0-7 0-1 0-3 0-4 0-2 0-4 1-6 0-2 1-4 1-6 1-2 2-4 3-7 0-1 1-3 1-4 1-2 2-4 4-6 0-2 1-4 2-5 2-3 4-6 6-9 1-2 2-3 3-5 0-1 1-1 1-2h-86c0 0 0 1 0 1-1 2-3 5-4 7-1 1-1 2-2 3-1 2-3 5-5 7 0 1-1 2-1 3-2 3-5 6-7 9 0 1-1 1-1 2-3 3-6 7-9 12-1 0-1 1-2 2-4 5-8 11-13 17l-11 14-14-11c-17-13-31-24-41-37-1-1-2-2-2-3-1-1-2-2-2-3-1-2-2-3-3-5-1-1-1-2-2-4 0-1-1-2-1-3 0-2-1-3-1-5 0-1 0-1 0-2-1-1-1-1-1-2 0-1 0-1 0-2h-14c-41 0-74 33-74 73v225h0c-1 16-6 32-14 47l-25 41h798l-25-41c-8-15-13-31-14-47h0v-225z m87 155h-52v35h52c10 0 18-8 18-18 0-9-8-17-18-17z m0 0m-394 368c34 0 61 28 61 62 0 34-27 61-61 61-34 0-62-27-62-61 0-34 28-62 62-62z m0 88c14 0 26-12 26-26 0-15-12-27-26-27-15 0-27 12-27 27 0 14 12 26 27 26z m0 0m237-175c0-20-16-36-36-36s-35 16-35 36 16 35 35 35 36-16 36-35z m0 0m-527 0c0-8-2-15-6-21-6-8-4-19 3-25 4-2 7-3 11-3 5 0 11 3 14 7 9 12 13 27 13 42v0c0 10-8 17-17 17-10 0-18-8-18-17z m0 0m-35 35c7 0 15-3 20-7 4-2 7-3 11-3 5 0 10 2 14 7 6 8 4 19-4 25-12 8-26 13-41 13h0c-10 0-18-8-18-18 0-10 8-17 18-17z m0 0m-53-53c10 0 18 8 18 18 0 7 2 14 7 20 5 8 3 19-4 24-8 6-19 4-25-4-9-12-13-26-13-40v-1c0-9 8-17 17-17z m0 0m8-15c-6-8-4-19 4-24 12-9 26-14 41-14h0c10 0 18 8 18 18 0 10-8 17-18 17-7 0-14 3-20 7-8 6-19 4-25-4z m0 0m536-582h-456c-9 0-17-7-17-17 0-10 8-18 17-18h456c10 0 18 8 18 18 0 10-8 17-18 17z m0 0m88 439h-455c-9 0-17-8-17-17 0-10 8-18 17-18h455c10 0 18 8 18 18 0 9-8 17-18 17z m0 0m-529 0h-85c-10 0-18-8-18-17 0-10 8-18 18-18h85c9 0 17 8 17 18 0 9-8 17-17 17z m0 0" horiz-adv-x="1000" />

<glyph glyph-name="pack" unicode="&#xe813;" d="M894 284c-1 7-6 12-13 13l-150 34c0 0 0 0-1 0 0 0 0 0 0 0l-84 17c-9 2-18-4-19-12-2-9 3-17 12-19l40-8-84-43c50 332 76 526 77 528 1 9-5 17-14 18l-50 7c-8 1-17-5-18-14l-84-584-7-4-16 8c0 2 1 4 1 5-3 298-11 601-11 604 0 5-2 9-5 12-3 3-7 4-12 4l-50-2c-8 0-15-8-15-16l12-568-83 41 57 11c9 2 15 10 13 19-2 8-10 14-19 12l-100-19c-1 0-1 0-2-1-1 0-2 0-3 0l-147-31c-7-2-12-7-13-14-1-7 3-13 9-16l127-61 31-253c0-6 4-11 9-13l211-88c0 0 1 0 1 0 0 0 0 0 0 0 1-1 2-1 2-1 1 0 1 0 1 0 1 0 1 0 2 0 0 0 0 0 0 0 1 0 1 0 2 0 0 0 0 0 1 0 0 0 1 0 2 1 0 0 0 0 0 0 0 0 1 0 1 0l225 88c6 2 9 6 10 12l39 263 106 53c6 4 10 10 9 17z m-453 533c2-66 8-322 10-576l-15 7-13 569 18 0z m-269-543l96 21 189-93-77-27-208 99z m311-384l-180 75-26 224 95-46c3-1 5-2 7-2 2 0 4 1 6 1l98 35v-287z m137 895l18-3c-8-54-34-243-79-534l-18-9 79 546z m90-820l-195-76v288l103-35c4-1 8-1 12 1l114 54-34-232z m40 270l-128-60-82 27 189 96 102-22-81-41z" horiz-adv-x="1000" />

<glyph glyph-name="differ" unicode="&#xe814;" d="M740 594c24 31 28 69 12 111-11 30-29 52-30 53-6 7-16 8-23 2-7-6-8-17-2-24 1 0 57-70 17-121-58-74 4-171 7-175 3-5 8-8 13-8 4 0 7 1 9 3 8 5 10 15 5 23 0 0-51 81-8 136z m111 0c24 31 28 69 12 111-11 30-29 52-30 53-6 7-16 8-23 2-7-6-8-17-2-24 0 0 57-70 17-121-58-74 4-171 7-175 3-5 8-8 13-8 4 0 7 1 9 3 8 5 10 15 5 23 0 0-51 81-8 136z m-694-7c24 30 28 68 12 110-12 31-30 52-30 53-6 7-17 8-24 2-7-6-7-16-2-23 1-1 58-71 18-122-58-74 4-171 6-175 3-5 9-8 14-8 3 0 6 1 9 3 8 5 10 15 5 23-1 1-51 82-8 137z m111 0c24 30 28 68 12 110-12 31-30 52-30 53-6 7-17 8-24 2-7-6-7-16-2-23 1-1 58-71 18-122-58-74 4-171 6-175 3-5 9-8 14-8 3 0 6 1 9 3 8 5 10 15 5 23-1 1-51 82-8 137z m677-520h-35c-8 206-170 374-373 391v17c20 13 33 35 33 60 0 38-31 69-69 69 0 0-1 0-2 0-38 0-69-31-69-69 0-25 13-47 34-60v-17c-204-17-366-185-374-391h-35c-30 0-55-25-55-55v-21c0-30 25-55 55-55h890c30 0 55 25 55 55v21c0 30-25 55-55 55z m-482 468c0 20 16 36 36 36 1 0 2 0 2 0 20 0 36-16 36-36 0-15-9-29-23-34-6-3-11-9-11-15v-26h-6v26c0 6-5 12-11 15-14 5-23 19-23 34z m482-566h-890c-12 0-22 10-22 22v21c0 12 10 22 22 22h27c0 0 0 0 1 0h593c10 0 17 7 17 16 0 10-7 17-17 17h-553c9 199 173 359 375 360h4c202-1 366-161 375-360h-94c-9 0-16-7-16-17 0-9 7-16 16-16l128 0h34c12 0 22-10 22-22v-21h0c0-12-10-22-22-22z" horiz-adv-x="1000" />

<glyph glyph-name="layers" unicode="&#xe815;" d="M1000 350c0 21-12 40-31 50l-74 37 74 37c0 0 0 0 0 0 19 10 31 29 31 50 0 21-12 40-31 49l-420 210c-31 16-67 16-98 0l-420-210c-19-9-31-28-31-49 0-21 12-40 31-50l74-37-74-37c-19-10-31-29-31-50s12-40 31-50l74-37-74-37c-19-9-31-28-31-50 0-21 12-40 31-49l420-210c15-8 32-12 49-12 17 0 34 4 49 12l420 210c19 9 31 28 31 49 0 22-12 41-31 50l-74 37 74 37c19 10 31 29 31 50z m-949 165c-4 3-5 7-5 9s1 6 5 8l421 210c9 5 18 7 28 7 10 0 20-2 29-7l420-210c4-2 5-6 5-8s-1-6-5-9l-420-210c-18-9-40-9-57 0l-421 210z m898-330c4-2 5-6 5-9 0-2-1-6-5-8l-420-210c-18-9-40-9-57 0l-421 210c-4 2-5 6-5 8 0 3 1 7 5 9l106 53 294-148c15-7 32-11 49-11 17 0 34 4 49 11l295 148 105-53z m0 157l-420-211c-18-9-40-9-57 0l-421 211c-4 2-5 6-5 8 0 2 1 6 5 9l106 52 294-147c15-8 32-12 49-12 17 0 34 4 49 12l295 147 105-52c4-3 5-7 5-9 0-2-1-6-5-8z" horiz-adv-x="1000" />

<glyph glyph-name="responsive" unicode="&#xe816;" d="M932 759h-773c-38 0-68-29-68-68v-227c0-14 9-23 23-23s22 9 22 23v227c0 14 10 23 23 23h773c14 0 23-9 23-23v-545c0-14-9-23-23-23h-546c-13 0-22-9-22-23s9-23 22-23h46v-68c0-14-9-23-23-23h-23c-13 0-22-9-22-22s9-23 22-23h319c13 0 22 9 22 23s-9 22-22 22h-23c-14 0-23 9-23 23v68h273c39 0 68 30 68 69v545c0 39-29 68-68 68z m-459-773c2 7 4 14 4 23v68h137v-68c0-9 2-16 4-23h-145z m413 273h-500c-13 0-22-9-22-23s9-22 22-22h500c14 0 23 9 23 22s-9 23-23 23z m-636 137h-182c-38 0-68-30-68-69v-318c0-39 30-68 68-68h182c39 0 68 29 68 68v318c0 39-29 69-68 69z m23-387c0-14-9-23-23-23h-182c-13 0-22 9-22 23v318c0 14 9 23 22 23h182c14 0 23-9 23-23v-318z" horiz-adv-x="1000" />

<glyph glyph-name="settings" unicode="&#xe817;" d="M642 130c-10 6-21 13-32 19 3 21 3 43 0 65 11 6 22 12 32 19 18 10 25 33 17 52 0 0 0 0 0 0l-23 55c-7 19-28 30-48 25-12-3-24-6-36-9-14 17-29 32-46 46 3 12 6 24 9 36 5 20-6 41-25 48l-55 23c-19 8-42 1-52-17-7-10-13-21-19-32-22 3-44 3-65 0-6 11-13 22-19 32-11 18-33 25-52 17l-56-23c-19-7-29-28-24-48 3-12 6-24 9-36-17-14-32-29-46-46-12 3-24 6-36 9-20 5-41-6-49-25l-23-55c-8-19 0-42 17-52 11-7 22-13 32-19-2-22-2-44 0-65-10-6-21-13-32-19-17-11-25-33-17-52l23-56c8-19 29-29 49-24 12 3 24 6 36 9 14-17 29-33 46-46-3-12-6-24-9-36-5-20 5-41 24-49l56-23c5-2 10-3 16-3 14 0 28 7 36 20 6 11 12 21 19 32 21-2 43-2 65 0 6-11 12-21 19-32 10-17 33-25 52-17l55 23c19 8 30 29 25 49-3 12-6 24-9 36 17 13 32 29 46 46 12-3 24-6 36-9 20-5 41 5 48 24l23 56c8 19 1 41-17 52z m-46-88c-11 3-23 6-35 9-16 4-33-2-44-15-11-15-25-29-41-41-13-10-19-28-14-44 3-12 6-23 9-34l-51-22c-6 11-12 21-18 31-9 15-25 23-42 21-19-2-38-2-58 0-16 2-33-6-41-21-6-10-12-21-18-31l-51 22c3 11 6 23 9 34 4 16-2 34-15 44-15 12-29 26-41 41-10 13-27 19-44 15-11-3-23-6-34-9l-22 51c11 6 21 12 31 18 15 8 23 25 21 41-2 20-2 39 0 58 2 17-6 33-21 42-10 6-20 12-31 18l22 51c11-3 23-6 34-9 17-5 34 1 44 14 12 16 26 30 41 41 13 11 19 28 15 44-3 12-6 24-9 35l51 21c6-10 12-20 18-31 8-14 25-23 41-20 20 2 39 2 58 0 17-3 33 6 42 20 6 11 12 21 18 31l51-21c-3-11-6-23-9-35-5-16 1-33 14-44 16-11 30-25 41-41 11-13 28-19 44-14 12 3 24 6 35 9l21-51c-10-6-20-12-31-18-14-9-23-25-20-42 2-19 2-38 0-58-3-16 6-33 20-41 11-6 21-12 31-18l-21-51z m-124 198c0 0 0 0 0 0-32 77-121 114-199 82-78-32-115-121-83-199 16-38 45-67 83-83 19-7 39-11 58-11s40 4 59 11c77 33 114 122 82 200z m-99-158c-27-11-56-11-83 0-27 11-47 31-58 58-23 55 3 118 58 141 14 5 27 8 41 8 42 0 83-25 100-66 23-55-4-119-58-141z m597 571c-8 1-16 2-24 3-4 14-9 27-16 39 5 6 10 13 15 19 10 14 8 34-4 46l-31 31c-12 12-32 14-46 4-6-5-13-10-19-15-12 7-25 12-39 16-1 8-2 16-3 24-3 17-18 30-35 30h-44c-17 0-32-13-35-30-1-8-2-16-3-24-14-4-27-9-39-16-6 5-13 10-19 15-14 10-34 8-46-4l-31-31c-12-12-14-32-4-46 5-6 10-13 15-19-7-12-12-25-16-39-8-1-16-2-24-3-17-3-30-18-30-35v-44c0-17 13-32 30-35 8-1 16-2 24-3 4-14 9-27 16-39-5-6-10-13-15-19-10-14-8-34 4-46l31-31c12-12 32-14 46-4 6 5 13 10 19 15 12-7 25-12 39-16 1-8 2-16 3-24 3-17 18-30 35-30h44c17 0 32 13 35 30 1 8 2 16 3 24 14 4 27 9 39 16 6-5 13-10 19-15 14-10 34-8 46 4l31 31c12 12 14 32 4 46-5 6-10 13-15 19 7 12 12 25 16 39 8 1 16 2 24 3 17 3 30 18 30 35v44c0 17-13 32-30 35z m-12-73c-7-1-15-2-22-3-14-2-26-12-29-25-4-14-9-26-16-38-7-13-6-28 3-39 4-6 8-12 13-17l-23-23c-5 5-11 9-17 13-11 9-26 10-39 3-12-7-24-12-38-16-13-3-23-15-25-29-1-7-2-15-3-22h-32c-1 7-2 15-3 22-2 14-12 26-25 29-14 4-26 9-38 16-13 7-28 6-39-3-6-4-12-8-17-13l-23 23c5 5 9 11 13 17 9 11 10 26 3 39-7 12-12 24-16 38-3 13-15 23-29 25-7 1-15 2-22 3v32c7 1 15 2 22 3 14 2 26 12 29 25 4 14 9 26 16 38 7 13 6 28-3 39-4 6-8 12-13 17l23 23c5-5 11-9 17-13 11-9 26-10 39-3 12 7 24 12 38 16 13 3 23 15 25 29 1 7 2 15 3 22h32c1-7 2-15 3-22 2-14 12-26 25-29 14-4 26-9 38-16 13-7 28-6 39 3 6 4 12 8 17 13l23-23c-5-5-9-11-13-17-9-11-10-26-3-39 7-12 12-24 16-38 3-13 15-23 29-25 7-1 15-2 22-3v-32z m-212 107c-50 0-91-41-91-91 0-50 41-91 91-91s91 41 91 91c0 50-41 91-91 91z m0-141c-28 0-50 22-50 50 0 28 22 50 50 50 28 0 50-22 50-50 0-28-22-50-50-50z" horiz-adv-x="1000" />

<glyph glyph-name="shopping-bag-1" unicode="&#xe818;" d="M900-17l-58 649c-1 13-12 22-25 22h-121c0 108-88 196-196 196s-196-88-196-196h-121c-13 0-24-9-25-22l-57-649c0-1 0-1 0-2 0-72 66-131 148-131h503c81 0 148 59 148 131 0 1 0 1 0 2z m-400 817c81 0 146-65 146-146h-292c0 81 66 146 146 146z m252-900h-503c-54 0-98 36-99 80l56 625h98v-87c0-14 11-25 25-25s25 11 25 25v87h292v-87c0-14 11-25 25-25s25 11 25 25v87h98l56-625c-1-44-45-80-98-80z" horiz-adv-x="1000" />

<glyph glyph-name="chat" unicode="&#xe819;" d="M727 751h-671c-31 0-56-25-56-56v-403c0-31 25-56 56-56h44v-150c0-10 6-18 14-22 3-1 6-2 9-2 7 0 13 3 17 7l167 167h33c13 0 24 10 24 23 0 13-11 24-24 24 0 0-44 0-45 0-5 0-11-3-15-7l-133-133c0 0 0 118 0 119-1 12-11 21-24 21h-67c-5 0-9 4-9 9v403c0 5 4 9 9 9h671c5 0 9-4 9-9v-155c0-13 11-23 24-23s23 10 23 23v155c0 31-25 56-56 56z m217-289h-470c-31 0-56-25-56-56v-274c0-32 25-57 56-57h294l119-119c5-5 11-7 17-7 3 0 6 1 9 2 9 4 15 12 15 22v102h16c31 0 56 25 56 57v274c0 31-25 56-56 56z m9-330c0-6-4-10-9-10h-40c-12 0-23-9-24-21 0-1 0-71 0-71l-85 85c0 0 0 1-1 1 0 0 0 0-1 1-4 3-9 5-15 5h-304c-5 0-9 4-9 10v274c0 5 4 9 9 9h470c5 0 9-4 9-9v-274z m-244 160c-13 0-24-10-24-23 0-13 11-24 24-24 13 0 24 11 24 24 0 13-11 23-24 23z m-103 303c0 0-429 0-429 0-13 0-23-11-23-24s10-23 23-23h429c13 0 24 10 24 23s-11 24-24 24z m-266-156h-163c-13 0-23-11-23-24 0-13 10-23 23-23h163c13 0 24 10 24 23s-11 24-24 24z m259-147c-13 0-23-10-23-23 0-13 10-24 23-24 13 0 24 11 24 24 0 13-11 23-24 23z m220 0c-13 0-24-10-24-23 0-13 11-24 24-24 13 0 23 11 23 24 0 13-10 23-23 23z" horiz-adv-x="1000" />

<glyph glyph-name="quote_soft" unicode="&#xe81a;" d="M621 725c-54 58-121 83-200 83-42 0-79-8-113-20-37-17-70-38-95-63-25-25-46-58-63-92-12-37-21-75-21-116 0-67 21-121 59-167 37-46 87-83 141-112 25-13 42-30 54-55 13-25 17-50 13-83 0-29-8-62-17-96-8-33-21-62-33-92 0-4 4-8 17-12 8-4 12-8 16-8 17 12 42 33 79 66 38 34 75 80 117 134 38 54 71 116 100 191 29 75 38 150 33 234-4 83-33 150-87 208z m742-208c-5 83-34 150-88 208-54 58-121 83-200 83-42 0-79-8-112-20-38-17-67-34-92-63-25-25-46-58-63-92-16-37-25-75-25-116 0-67 21-121 59-167 37-46 87-83 141-112 30-17 46-34 59-59 12-25 16-50 12-83 0-29-8-63-16-96-9-33-21-63-34-92 0-4 4-8 17-12 4-4 8-9 17-9 16 13 41 34 79 67 37 33 75 79 116 134 38 54 71 116 100 191 25 79 38 154 30 238z" horiz-adv-x="1500" />

<glyph glyph-name="shopping-bag" unicode="&#xe81b;" d="M928-107l-75 734c-2 20-18 36-38 36h-125c0 103-85 187-188 187s-187-84-187-187h-125c-21 0-37-16-39-36l-75-734c-2-23 16-43 39-43h774c23 0 41 20 39 43z m-426 879c60 0 109-49 109-109h-218c0 60 49 109 109 109z m-344-844l67 656h90v-78c0-21 17-39 39-39 21 0 39 18 39 39v78h218v-78c0-21 18-39 39-39s40 18 40 39v78h89l67-656h-688z" horiz-adv-x="1000" />

<glyph glyph-name="location" unicode="&#xe81d;" d="M500 850c-194 0-352-154-352-344 0-254 163-513 327-647 15-12 35-12 50 0 116 95 327 347 327 647 0 190-158 344-352 344z m0-908c-71 68-273 284-273 564 0 147 122 266 273 266s273-119 273-266c0-214-122-421-273-564z m0 743c-103 0-187-84-187-187s84-187 187-187 187 84 187 187-84 187-187 187z m0-296c-60 0-109 49-109 109 0 60 49 109 109 109s109-49 109-109c0-60-49-109-109-109z" horiz-adv-x="1000" />

<glyph glyph-name="user" unicode="&#xe81e;" d="M906 114c-57 55-131 86-209 87v92c38 46 59 103 59 163v139c0 141-115 255-255 255s-255-114-255-255v-139c0-60 21-117 60-163v-91c-79-2-153-33-210-88-14-13-16-35-5-51 94-133 247-213 410-213 163 0 316 80 410 213 11 16 9 37-5 51z m-582 481c0 98 80 177 177 177 97 0 177-79 177-177v-139c0-45-18-88-49-121-34-36-79-55-128-55s-94 19-128 55c-31 33-49 76-49 121v139z m177-667c-126 0-244 56-324 152 39 28 87 43 136 43h32c21 0 39 18 39 40v67c35-18 75-28 117-28 42 0 82 9 117 28v-67c0-22 18-40 39-40h32c49 0 97-15 136-43-80-96-198-152-324-152z" horiz-adv-x="1000" />

<glyph glyph-name="scooter" unicode="&#xe821;" d="M734 131c0-34 28-62 63-62s62 28 62 62-28 63-62 63-63-28-63-63z m63 32c17 0 31-15 31-32s-14-31-31-31-31 14-31 31 14 32 31 32z m62 166v115h16c9 0 16 7 16 15v94c0 9-7 16-16 16h-69l-25 50v59c0 9-7 16-15 16h-94c-9 0-16-7-16-16v-62c0-9 7-16 16-16h84l16-31h-53c-9 0-16-7-16-16v-31h-62c-9 0-16-7-16-16v-62h31v47h47v-32c0-8 7-15 16-15h15v-115c-61-16-111-60-135-120h-89c-42 91-13 142-3 157h40c9 0 16 7 16 15v63c0 8-7 15-16 15h-234v141c-1 2-1 3-1 5-1 2-3 4-4 6l-62 63c-3 3-7 4-12 4h-125c-4 0-8-1-11-4l-62-63c-2-2-3-4-4-6 0-1-1-3-1-5v-234h178l-16-32c-91-5-162-80-162-171v-32c0-8 7-15 16-15h48c9-77 78-133 156-124 64 7 116 59 123 124h283c8-77 78-134 155-125s133 77 125 155c-2 17-7 33-14 48h30c9 0 16 7 16 15 0 56-46 104-110 120z m-109 302h-62v32h62v-32z m-437-203h218v-31h-218v31z m-197 219h112l31-31h-174l31 31z m72-63v-46c0-9-7-16-16-16s-16 7-16 16v46h32z m-125-187v187h62v-46c0-26 21-47 47-47s47 21 47 47v46h62v-187h-218z m171-375c-54 0-100 40-108 94h48c8-34 42-54 76-45 22 5 39 23 45 45h47c-7-54-53-94-108-94z m-27 94h54c-8-15-27-20-42-12-5 3-9 7-12 12z m199 31h-343v16c0 77 63 140 140 140h203v-156z m16 187h-194l16 32h227c-14-29-26-81 5-157h-38v110c0 8-7 15-16 15z m172-187h-156v31h156v-31z m219 391h46v-63h-46v63z m-16-94h31v-110c-5 0-10 0-15 0h-32c-5 0-10 0-15 0v110h31z m-63 94h47v-63h-47v63z m63-516c-55 0-101 40-108 94 8 0 14 7 14 15v56c2 3 3 5 4 7h179c13-18 20-40 20-63 0-60-49-109-109-109z m-109 203c-9 0-16-7-16-16v-62h-47v44c30 71 86 112 156 112h32c61 0 113-34 123-78h-248z" horiz-adv-x="1000" />

<glyph glyph-name="mail" unicode="&#xe822;" d="M961 702c0 0 0 0 0 0l-922 0c0 0 0 0 0 0-22 0-39-18-39-39v-625c0-22 18-40 39-40h0 922 0c22 0 39 18 39 40v625c0 21-17 39-39 39z m-95-79l-366-362-366 362h732z m-788-54l221-219-221-219v438z m56-492l221 218 118-116c15-15 39-15 54 0l118 116 221-218h-732z m788 54l-221 219 221 219v-438z" horiz-adv-x="1000" />

<glyph glyph-name="youtube" unicode="&#xe823;" d="M854 704c-95 94-220 146-354 146-133 0-259-52-353-146s-147-220-147-354c0-134 52-259 147-354 94-94 219-146 353-146 134 0 259 52 354 146 94 95 146 220 146 354 0 134-52 259-146 354z m-22-685c-89-89-207-138-332-138-125 0-243 49-331 138-89 88-138 206-138 331 0 125 49 243 138 332 88 88 206 137 331 137 125 0 243-49 332-137 88-89 137-207 137-332 0-125-49-243-137-331z m8 607c-5 6-15 7-22 2-7-6-8-15-2-22 58-72 90-163 90-256 0-108-42-211-119-287-76-77-178-119-287-119-100 0-196 36-271 103-6 6-16 5-22-1s-5-16 1-22c81-72 184-112 292-112 117 0 227 46 309 129 83 82 129 192 129 309 0 100-35 198-98 276z m-746-276c0 224 182 406 406 406 100 0 196-36 271-103 6-6 16-5 22 1 6 7 5 16-1 22-81 72-184 112-292 112-117 0-227-46-309-129-83-82-128-192-128-309 0-100 34-198 97-275 3-4 8-6 12-6 4 0 7 1 10 3 7 6 8 16 2 22-58 72-90 163-90 256z m675 111c0 4-6 43-24 63-22 24-47 27-59 28-1 0-2 0-2 0-1 0-1 0-1 0-72 6-180 6-181 6h-1c-1 0-109 0-181-6 0 0 0 0 0 0-1 0-2 0-3 0-12-1-37-4-59-28-18-20-23-59-24-63 0 0 0 0 0 0 0-2-5-46-5-91v-42c0-44 5-88 5-90 0 0 0 0 0 0 1-5 6-44 24-63 20-23 46-26 60-28 2 0 4 0 6-1 0 0 1 0 1 0 41-4 171-5 177-5 1 0 109 0 181 5 0 0 0 0 1 0 1 0 2 1 3 1 12 1 36 4 58 28 18 19 24 58 24 63 0 0 0 0 0 0 0 2 5 46 5 90v42c0 45-5 89-5 91 0 0 0 0 0 0z m-26-133c0-41-4-84-5-86-1-9-6-36-16-46 0 0 0 0 0 0-14-16-29-17-39-18-1 0-2 0-3-1-70-5-177-5-178-5-2 0-132 1-173 5-2 1-5 1-7 1-12 2-28 4-40 18-1 0-1 0-1 0-8 9-14 33-16 46 0 2-5 45-5 86v42c0 42 5 84 5 87 1 9 7 35 16 46 0 0 0 0 1 0 13 15 28 17 38 18 1 0 2 0 3 0 71 6 177 6 178 6h1c1 0 108 0 178-6 1 0 2 0 3 0 10-1 25-3 39-18 0 0 0 0 0 0 8-10 14-33 16-46 1-3 5-45 5-87l0-42z m-137 35l-161 96c-4 3-10 3-15 0-5-2-8-8-8-13v-193c0-6 3-11 8-14 2-1 5-2 7-2 3 0 6 1 8 2l161 97c5 3 8 8 8 13s-3 11-8 14z m-153-83v138l115-69-115-69z" horiz-adv-x="1000" />

<glyph glyph-name="timetable" unicode="&#xe824;" d="M941 279v481c0 16-13 30-29 30h-148v31c0 16-13 29-30 29s-29-13-29-29v-31h-117v31c0 16-13 29-29 29s-30-13-30-29v-31h-117v31c0 16-13 29-29 29s-29-13-29-29v-31h-118v31c0 16-13 29-29 29s-29-13-29-29v-31h-149c-16 0-29-14-29-30v-764c0-16 13-29 29-29h488c48-70 128-117 219-117 146 0 264 118 264 264 0 62-22 120-59 165z m-763 452v-29c0-17 13-30 29-30s29 13 29 30v29h118v-29c0-17 13-30 29-30s29 13 29 30v29h117v-29c0-17 13-30 30-30s29 13 29 30v29h117v-29c0-17 13-30 29-30s30 13 30 30v29h119v-117h-824v117z m-119-705v529h824v-222c-42 28-92 44-147 44-92 0-174-48-221-120-4 2-8 3-13 3h-59c-16 0-29-13-29-29s13-29 29-29h45c-7-19-11-39-14-59h-31c-16 0-29-13-29-29s13-30 29-30h31c3-20 7-40 14-58z m677-117c-113 0-205 92-205 205s92 205 205 205 205-92 205-205-92-205-205-205z m0 0m118 234h-88v88c0 16-13 29-30 29s-29-13-29-29v-117c0-16 13-30 29-30h118c16 0 29 14 29 30s-13 29-29 29z m0 0m-588 352h-59c-16 0-29-14-29-30s13-29 29-29h59c16 0 29 13 29 29s-13 30-29 30z m0 0m0-118h-59c-16 0-29-13-29-29s13-29 29-29h59c16 0 29 13 29 29s-13 29-29 29z m0 0m0-117h-59c-16 0-29-13-29-29s13-29 29-29h59c16 0 29 13 29 29s-13 29-29 29z m0 0m177 176h59c16 0 29 13 29 29s-13 30-29 30h-59c-16 0-29-14-29-30s13-29 29-29z m0 0m0-117h59c16 0 29 13 29 29s-13 29-29 29h-59c-16 0-29-13-29-29s13-29 29-29z m0 0m-177-176h-59c-16 0-29-13-29-29s13-30 29-30h59c16 0 29 14 29 30s-13 29-29 29z m0 0m412 293h58c17 0 30 13 30 29s-13 30-30 30h-58c-16 0-30-14-30-30s14-29 30-29z m0 0" horiz-adv-x="1000" />

<glyph glyph-name="calendar-2" unicode="&#xe826;" d="M883 772h-47v78h-78v-78h-516v78h-78v-78h-47c-64 0-117-53-117-117v-688c0-64 53-117 117-117h766c64 0 117 53 117 117v688c0 64-53 117-117 117z m-766-78h47v-78h78v78h516v-78h78v78h47c21 0 39-18 39-39v-94h-844v94c0 21 18 39 39 39z m766-766h-766c-21 0-39 18-39 39v516h844v-516c0-21-18-39-39-39z m-735 473h79v-78h-79z m157 0h78v-78h-78z m156 0h78v-78h-78z m234-78h-78v78h78z m157 0h-79v78h79z m-704-78h79v-79h-79z m157 0h78v-79h-78z m156 0h78v-79h-78z m-313-157h79v-78h-79z m157 0h78v-78h-78z m156 0h78v-78h-78z m402 69l-64-62 15-87-80 41-79-41 15 87-64 62 89 12 39 80 40-80z m0 0" horiz-adv-x="1000" />

<glyph glyph-name="dumbell" unicode="&#xe827;" d="M551 703c-8-8-8-20 0-28 8-8 20-8 28 0 7 8 7 20 0 28-8 7-20 7-28 0z m0 0m-402-403c-8-8-8-20 0-28 7-7 20-7 27 0 8 8 8 20 0 28-7 8-20 8-27 0z m0 0m831 278l-55 55 41 42c23 23 23 60 0 83l-55 55c-23 23-60 23-83 0l-42-41-55 55c-31 31-80 31-111 0-10-10-17-22-20-35-38 32-96 30-132-6-38-39-38-101 0-139l97-97-264-264-97 97c-38 38-100 38-139 0-36-36-38-93-5-132-14-3-26-10-36-20-31-31-31-80 0-111l55-55-41-42c-23-23-23-60 0-83l55-55c23-23 60-23 83 0l42 41 55-55c31-31 80-31 111 0 10 10 17 22 20 35 38-32 96-30 132 6 38 39 38 101 0 139l-97 97 264 264 97-97c38-38 100-38 139 0 36 36 38 94 5 132 14 3 26 10 36 20 31 31 31 80 0 111z m-125 208c8 7 21 7 28 0l56-56c7-7 7-20 0-27l-42-42-83 83z m-706-874c-8-7-21-7-28 0l-56 56c-7 7-7 20 0 27l42 42 83-83z m207-13c-15-16-40-16-55 0-412 411 49-50-249 249-16 15-16 40 0 55 15 15 40 15 55 0l249-249h0c15-15 15-40 0-55z m152 41c-23-23-60-23-83 0-313 314-289 289-290 291l-42 41c-23 23-23 60 0 83 23 23 60 23 83 0l332-332c23-23 23-60 0-83z m-97 235l-83 83 265 265 83-83z m500 168c-23-23-60-23-83 0-500 500 41-41-332 332-23 23-23 60 0 83 23 23 60 23 83 0l332-332c23-23 23-60 0-83z m41 152c-15-15-40-15-55 0 0 0 0 0 0 0l-249 249c-15 15-15 40 0 55 15 16 40 16 55 0l249-249c16-15 16-40 0-55z m0 0m-527-500c8-7 20-7 28 0 8 8 8 21 0 28l-221 222c-8 7-21 7-28 0s-8-20 0-28z m0 0m209 652c-8 8-20 8-28 0-7-7-7-20 0-27l222-222c7-7 20-7 27 0s8 20 0 28z m0 0" horiz-adv-x="1000" />

<glyph glyph-name="jogging" unicode="&#xe828;" d="M957-44c-1 11-9 19-20 19 0 0 0 0 0 0-5 0-10 0-15 0 0 1 0 2 0 3 1 48-18 88-58 118-32 25-75 40-112 54-32 12-63 23-79 37l-50 290 287 341c5 6 6 14 3 21-3 7-10 11-18 11h-364c-6 0-12-3-15-8l-66-88c0 0 0 0 0 0l-96-131c-4 9-7 19-10 28-1 7-7 12-14 14-7 1-14-1-19-6l-205-226-59-58c-3-4-6-9-6-14 0-6 3-11 6-14l242-238h-87c-10 0-19-9-19-19s9-20 19-20h127l60-60h-91c-11 0-19-8-19-19s8-20 19-20h131l35-34c0 0 1-1 1-1 96-76 213-86 305-86h0c46 0 91 3 135 5 12 1 24 2 35 2 11 1 19 10 19 20l-2 79z m-416 855h312l-153-181c-37 21-80 46-122 70-30 17-59 33-83 48l46 63z m-70-95c26-15 56-32 88-50 40-23 80-46 116-67l-82-97c-3 0-6 0-9 0-63-1-117-2-160 30-18 13-35 32-49 53l96 131z m-153-108c2-4 4-9 6-14 3-5 6-10 9-15 1-2 2-4 3-5 17-29 40-55 65-73 53-40 117-39 184-38 0 0 0 0 1 0l15-90h-89c-11 0-20-9-20-20 0-10 9-19 20-19h96l8-45h-74c-11 0-19-9-19-19s8-20 19-20h80l13-75c1-4 3-8 5-10 22-24 59-37 99-52 72-26 146-53 144-134 0-2 0-3 0-5-4 0-8 0-11 0-27-1-55-2-81-2-115 0-208 17-287 98 0 0 0 0 0 0l-357 350 171 188z m585-714c-44-2-89-5-133-5h0c-85 0-194 9-280 77l-401 395 31 31 356-350c94-96 207-109 315-109 27 0 55 1 82 2 15 0 30 1 45 1l1-41c-5 0-11 0-16-1z m-761 215h-1c-11 0-20-9-20-19s9-20 20-20h1c11 0 19 9 19 20s-8 19-19 19z m98-99h-1c-11 0-20-8-20-19s9-20 20-20h1c10 0 19 9 19 20s-9 19-19 19z" horiz-adv-x="1000" />

<glyph glyph-name="support" unicode="&#xe829;" d="M500 174c-11 0-19-8-19-19 0-11 8-20 19-20s20 9 20 20c0 11-9 19-20 19z m441 676h-882c-33 0-59-26-59-59v-675c0-33 26-59 59-59h298l-28-90h-63c-33 0-59-26-59-58v-40c0-10 9-19 20-19h546c11 0 20 9 20 19v40c0 32-26 58-59 58h-63l-27 90h297c33 0 59 26 59 59v675c0 33-26 59-59 59z m-207-922c11 0 20-9 20-19v-20h-508v20c0 10 9 19 20 19 50 0 399 0 468 0z m-364 39l27 90h206l27-90h-260z m591 149c0-11-9-20-20-20-50 0-849 0-882 0-11 0-20 9-20 20v675c0 11 9 20 20 20h882c11 0 20-9 20-20v-675z m-59 656h-804c-11 0-20-9-20-20v-597c0-11 9-20 20-20h324c11 0 19 9 19 20 0 11-8 19-19 19h-305v559h766v-559h-305c-11 0-19-8-19-19 0-11 8-20 19-20h324c11 0 20 9 20 20v597c0 11-9 20-20 20z m-78-324h-156l-33 67c-4 7-11 11-19 11-7-1-14-5-17-12l-57-143-62 219c-3 8-10 14-18 14-8 0-16-5-19-12l-58-146-23 66c-2 8-9 13-17 14-8 0-15-4-19-11l-33-67h-117c-11 0-20-9-20-20 0-11 9-19 20-19h129c7 0 14 4 17 10l18 36 24-72c3-8 10-13 18-13 8-1 16 4 19 12l57 142 62-218c3-8 10-14 18-15 0 0 1 0 1 0 8 0 15 5 18 13l62 155 20-40c3-6 10-10 17-10h168c11 0 20 8 20 19 0 11-9 20-20 20z" horiz-adv-x="1000" />

<glyph glyph-name="waist" unicode="&#xe82a;" d="M656 682c-10 0-19-9-19-19s9-20 19-20c11 0 20 9 20 20s-9 19-20 19z m196-326c-22 79-119 204-107 423 0 5-1 10-5 14-4 4-9 6-14 6h-452c-5 0-10-2-14-6s-5-9-5-14c12-218-84-344-107-423-41-143 26-327 119-448 4-4 9-7 15-7h436c6 0 11 3 15 7 89 115 158 307 119 448z m-609 123c37 92 54 187 52 281h410c-2-94 15-189 52-281 2-4 3-8 5-12-81-38-171-58-262-58s-181 20-262 58c2 4 4 8 5 12z m238-539h-189c-101 134-131 287-111 385 105-41 206-128 300-200v-185z m-290 422c7 19 15 36 24 55 2 4 5 9 7 14 86-40 181-61 278-61 97 0 192 21 278 61 2-5 5-10 7-14 9-19 17-36 24-55-112-42-217-132-309-202-92 70-197 160-309 202z m517-422h-188v185c94 72 194 159 299 200 23-124-37-285-111-385z m-4 570c-9 26-16 53-21 79-3 10-13 17-23 15-11-2-18-13-15-23 5-28 13-55 22-83 3-10 14-16 25-12 10 3 15 14 12 24z m277 133h-121l44 45c8 7 8 20 0 27-7 8-20 8-27 0l-78-78c-8-7-8-20 0-27l78-78c7-8 20-8 27 0 8 7 8 20 0 27l-44 45h121c10 0 19 9 19 19s-9 20-19 20z m-780-6l-78 78c-7 8-20 8-27 0-8-7-8-20 0-27l44-45h-120c-11 0-20-9-20-20s9-19 20-19h120l-44-45c-8-7-8-20 0-27 7-8 20-8 27 0l78 78c8 7 8 20 0 27z" horiz-adv-x="1000" />

<glyph glyph-name="apple" unicode="&#xe82b;" d="M696 526c-11 0-20-9-20-20s9-19 20-19 19 9 19 19-8 20-19 20z m81-49c-7 8-19 9-28 2-8-6-9-19-2-27 28-35 46-89 46-143 0-11 8-20 19-20s20 9 20 20c0 63-21 126-55 168z m72 33c-42 61-100 94-163 94-60 0-102-49-127-65v64c0 55 22 108 61 147 23 23 23 60 0 83-23 23-60 23-83 0-45-46-76-102-88-164-44 78-127 130-222 130h-39c0 0 0 0 0 0-11 0-20-9-20-19v-39c0-60 21-116 58-161-37-21-69-54-93-98-28-51-43-112-43-173 0-87 32-202 81-291 59-108 135-168 213-168 14 0 59 17 74 27 21 13 39 9 44 9 14 2 28-2 40-9 15-10 60-27 74-27 78 0 154 60 213 168 49 89 81 204 81 291 0 73-22 146-61 201z m-284 295c7 8 20 8 27 0 8-7 8-20 0-27-46-47-72-109-72-175v-77c-13-2-26-2-39 0 0 23 0 54 0 77 0 76 30 148 84 202z m-357-73l83-83c8-8 20-8 28 0 8 7 8 20 0 27l-84 84c115-4 207-99 207-215v-6c-37 22-80 87-179 57-34 38-53 85-55 136z m587-695c-30-55-93-148-178-148-8 1-43 13-53 20-19 13-42 18-64 16-22 2-45-3-64-16-10-7-44-19-53-20-85 0-148 93-178 148-46 84-76 191-76 272 0 113 57 216 136 246 0 0 0 0 0 0 16 6 32 10 49 10 0 0 0 0 0 0 48 0 83-47 113-62 46-23 100-24 146 0 30 15 65 62 113 62 50 0 97-28 131-77 34-49 54-114 54-179 0-81-30-188-76-272z" horiz-adv-x="1000" />

<glyph glyph-name="care" unicode="&#xe82c;" d="M597 48h-76c-11 0-19-9-19-20 0-10 8-19 19-19h76c12 0 21-10 21-22 0-11-9-21-21-21h-204c-31 0-60 14-79 37l-49 59c-26 32-64 50-105 51v116h72c35 0 69-14 94-39l106-101c7-7 7-19 0-27-7-8-19-8-27-1l-82 76c-8 7-21 6-28-2-7-8-7-20 1-27l83-76c11-10 25-15 39-15 16 0 32 6 43 18 21 23 20 60-2 82l-106 101c-32 32-76 50-121 50h-76c-7 17-24 29-44 29h-92c-11 0-20-9-20-19v-143c0-11 9-20 20-20 10 0 19 9 19 20v123h73c5 0 9-4 9-9v-157c0-5-4-9-9-9h-21c-11 0-19-9-19-20 0-10 8-19 19-19h21c20 0 37 12 44 30 31 0 59-13 79-37l49-59c27-32 67-51 109-51h204c33 0 60 27 60 60s-27 61-60 61z m384 544c-11 0-20-8-20-19v-131h-72c-6 0-10 4-10 9v157c0 5 4 9 10 9h18c11 0 20 9 20 20 0 10-9 19-20 19h-18c-21 0-38-12-45-30-31 0-59 14-79 37l-49 59c-27 32-66 51-109 51h-204c-33 0-60-27-60-60 0-34 27-61 60-61h84c10 0 19 9 19 20s-9 19-19 19h-84c-11 0-21 10-21 22 0 11 10 21 21 21h204c31 0 60-14 79-37l49-59c26-31 64-50 105-51v-115h-72c-35 0-69 13-94 38l-106 101c-7 8-7 20 0 27 7 8 19 8 27 1l82-75c8-8 21-7 28 1 7 8 7 20-1 27l-83 76c-23 22-60 20-82-3-21-23-20-60 2-82l106-101c32-32 76-49 121-49h76c7-18 25-30 45-30h92c10 0 19 9 19 19v151c0 11-9 19-19 19z m-350-483c-5 9-16 14-26 9-10-4-15-15-10-25 3-8 10-12 18-12 2 0 5 0 7 2 0 0 1 0 1 0 10 4 14 16 10 26z m48 32c-6 9-19 11-27 5-9-7-11-19-4-28 3-5 9-8 15-8 4 0 8 2 12 4 0 0 0 0 0 0 9 7 11 19 4 27z m-103-54c-2 10-13 17-23 15-11-2-17-13-15-23 1-9 10-16 19-16 1 0 2 0 3 0 1 0 1 0 1 0 11 3 17 13 15 24z m144 97c-8 7-20 7-28-2 0 0 0 0 0 0-7-8-6-20 2-28 4-3 8-4 13-4 5 0 11 2 14 6 8 8 7 21-1 28z m-11-17l-2 2 2-2 0 0z m61 123c-11 3-22-3-25-13-3-11 3-22 13-25 2 0 4-1 6-1 8 0 16 6 19 14l0 0c3 11-3 22-13 25z m25 101c0 0 0 0 0 0-3 11-13 18-24 15-10-2-17-12-15-23 2-9 10-15 19-15 2 0 3 0 4 0 10 2 18 12 16 23z m-18-43c-11 1-20-7-21-18 0 0 0 0 0 0-1-11 7-20 18-21 0 0 1 0 1 0 10 0 19 8 19 18 1 11-7 20-17 21z m-26-114c-10 5-22 2-27-7l0-1c-6-9-2-21 7-26 3-2 7-3 10-3 7 0 13 4 17 11l-17 9 17-9c5 9 2 21-7 26z m-355 372c-4 10-16 14-26 9l0 0c-10-5-14-17-9-26 4-7 11-11 18-11 3 0 6 0 9 2 9 5 13 16 8 26z m57 16c-3 11-13 17-24 15 0 0 0 0 0 0-11-3-17-14-14-24 2-9 10-15 19-15 1 0 3 0 4 1 11 2 17 13 15 23z m-108-44c-7 8-19 10-28 3l12-15-12 15c-8-7-10-19-3-28 4-4 10-7 15-7 5 0 9 1 13 4l0 1c8 6 9 19 3 27z m-104-139c-11 3-22-3-24-14 0 0-1 0-1 0-2-11 4-21 15-24 1 0 3-1 4-1 9 0 17 6 19 15 3 11-3 21-13 24z m-13-57c-11 0-20-8-21-19 0 0 0 0 0-1 0-10 9-19 19-20 1 0 1 0 1 0 10 0 19 9 19 19 1 11-7 20-18 21z m37 110c-9 5-21 2-26-8l-1 0c-4-10 0-22 9-27 3-1 6-2 9-2 7 0 14 4 17 11 5 10 2 21-8 26z m35 47c-8 7-20 6-27-2 0 0 0-1 0-1-7-8-6-20 3-27 3-3 8-4 12-4 6 0 11 2 15 7 7 8 6 20-3 27z m-50-232c-2 11-12 18-22 16-11-2-18-12-16-23l0 0c1-9 10-16 19-16 1 0 2 0 3 0 11 2 18 12 16 23z m317 148c-25 0-49-10-66-28-16 18-40 28-65 28-50 0-91-40-91-90 0-27 12-53 33-70 0 0 0 0 0 0l111-89c4-2 8-4 12-4 5 0 9 2 13 5l116 92c0 0 1 1 1 1 17 18 27 40 27 65 0 50-41 90-91 90z m37-126l-103-82-99 78c-11 10-18 24-18 40 0 28 23 51 52 51 21 0 39-12 47-32 3-7 10-12 18-12 8 0 15 5 18 12 8 20 27 32 48 32 29 0 52-23 52-51 0-14-5-27-15-36z" horiz-adv-x="1000" />
</font>
</defs>
</svg>
